Альбомы одним "контейнером" ogg

Список разделов Ogg Vorbis Ogg Vorbis

Описание: Обсуждение всех вопросов касательно Ogg Vorbis

Актуально ли держать\выкладывать музыку в одном файле ogg ?

Да, это удобно (означает вашу поддержку)
6
17%
Нет, люблю когда всё разбито по трекам
23
64%
Я за, но не все плееры поддерживают такую штуку (нейтральный ответ)
1
3%
Актуально только в том случае, если бы многие плееры поддерживали такую возможность
6
17%
Годится только для "превью" и то с поправкой на поддержку другими плеерами
0
Голосов нет
Мне вообще по барабану
0
Голосов нет
Не понимаю, о чём вы?
0
Голосов нет
 
Всего проголосовавших: 36

Сообщение #31 mykola » 29.01.2009, 01:08

А не подскажете редактор cue файлов где взять? И где там менять с wav на ape или flac?
mykola M
Адепт
Аватара
Откуда: Украина
С нами: 9 лет 1 месяц

Сообщение #32 Зелёный » 29.01.2009, 10:09

За редактор CUE-файлов вполне сойдёт обычный Блокнот. А расширение менять тут:
PERFORMER "Blackmore's Night"
TITLE "Paris Moon [CD1]"
FILE "CD1.wav" WAVE
TRACK 01 AUDIO
TITLE "Intro / Past Times With Good Company"
PERFORMER "Blackmore's Night"
INDEX 01 00:00:00
TRACK 02 AUDIO
TITLE "Rainbow Blues"
PERFORMER "Blackmore's Night"
INDEX 01 03:43:61
TRACK 03 AUDIO
TITLE "Play Minstrel Play"
PERFORMER "Blackmore's Night"
INDEX 00 06:51:67
INDEX 01 06:54:25
TRACK 04 AUDIO
TITLE "World Of Stone"
PERFORMER "Blackmore's Night"
INDEX 00 11:14:64
INDEX 01 11:16:53
TRACK 05 AUDIO
TITLE "Under A Violet Moon"
PERFORMER "Blackmore's Night"
INDEX 00 16:45:39
INDEX 01 16:47:00
TRACK 06 AUDIO
TITLE "Soldier Of Fortune"
PERFORMER "Blackmore's Night"
INDEX 00 20:58:41
INDEX 01 21:00:39
TRACK 07 AUDIO
TITLE "Durch Den Wald Zum Bach Haus"
PERFORMER "Blackmore's Night"
INDEX 00 25:05:44
INDEX 01 25:08:43
TRACK 08 AUDIO
TITLE "Diamonds & Rust"
PERFORMER "Blackmore's Night"
INDEX 00 32:03:63
INDEX 01 32:05:00
TRACK 09 AUDIO
TITLE "Minstrel Hall"
PERFORMER "Blackmore's Night"
INDEX 00 36:48:04
INDEX 01 36:50:42
TRACK 10 AUDIO
TITLE "Home Again"
PERFORMER "Blackmore's Night"
INDEX 00 41:26:05
INDEX 01 41:28:31
TRACK 11 AUDIO
TITLE "Streets Of London"
PERFORMER "Blackmore's Night"
INDEX 00 51:51:30
INDEX 01 51:53:53
TRACK 12 AUDIO
TITLE "Renaissance Faire"
PERFORMER "Blackmore's Night"
INDEX 00 55:56:70
INDEX 01 55:58:73
http://промышляйразвратом.рф
Зелёный M
Модератор
Аватара
Возраст: 35
Откуда: Великий Новгород
С нами: 10 лет 2 месяца

Сообщение #33 mykola » 29.01.2009, 23:44

Спасибо! Поправил в блокноте-Фубар читает отлично! Непонятно только,почему Аимп открывает нормально неправильный cue???
mykola M
Адепт
Аватара
Откуда: Украина
С нами: 9 лет 1 месяц

Сообщение #34 do0dlez » 30.01.2009, 01:28

mykola писал(а):Спасибо! Поправил в блокноте-Фубар читает отлично! Непонятно только,почему Аимп открывает нормально неправильный cue???
потому, что он не смотрит на расширение файла...
фубар же не прощает ошибок))
May the force be with you
do0dlez
Увлечённый
Аватара
Возраст: 25
Откуда: Украина, Луганск
С нами: 8 лет 4 месяца

Сообщение #35 Зелёный » 31.01.2009, 00:07

Что есть, то есть...
http://промышляйразвратом.рф
Зелёный M
Модератор
Аватара
Возраст: 35
Откуда: Великий Новгород
С нами: 10 лет 2 месяца

Сообщение #36 do0dlez » 31.01.2009, 03:14

Greenm@n писал(а):Что есть, то есть...
а кто сказал, что это плохо? ;)
May the force be with you
do0dlez
Увлечённый
Аватара
Возраст: 25
Откуда: Украина, Луганск
С нами: 8 лет 4 месяца

Сообщение #37 Зелёный » 31.01.2009, 03:33

Никто не говорил :)
Вы, видимо, подумали, что я имею в виду foobar2k, я же имел в виду AIMP2 :)
http://промышляйразвратом.рф
Зелёный M
Модератор
Аватара
Возраст: 35
Откуда: Великий Новгород
С нами: 10 лет 2 месяца

Сообщение #38 mykola » 01.02.2009, 05:41

Плохо тогда,когда куй файл уже записан на болванку!... :smile:
mykola M
Адепт
Аватара
Откуда: Украина
С нами: 9 лет 1 месяц

Сообщение #39 Returned » 02.02.2009, 01:35

Ребят, старайтесь не отходить от темы.
Returned
Куратор
Аватара
Откуда: Россия, Москва
С нами: 10 лет 10 месяцев

Сообщение #40 Janik » 02.02.2009, 22:55

Эта тема поднята в свете последних моих пристрастий к контейнерам, что ли? :gamer:
И что же я вижу - заговор? :shock:
Janik M
Модератор
Аватара
Откуда: Санкт-Петербург
С нами: 9 лет 9 месяцев

Сообщение #41 mykola » 03.02.2009, 17:15

Ну я теперь, пожалуй,не буду так категоричен!... Проверил седня-EAC создает правильный cue.. Так что,можно пользоваться в принципе...:smile:
mykola M
Адепт
Аватара
Откуда: Украина
С нами: 9 лет 1 месяц

Сообщение #42 mykola » 18.02.2009, 19:31

В связи с тем,что Ворбис умеет делать мульти-треки с сохранением тегов и без файла cue, хочу спросить:а чем делать такие файлы без конвертирования? И чем их можно разбивать ?
mykola M
Адепт
Аватара
Откуда: Украина
С нами: 9 лет 1 месяц

Сообщение #43 do0dlez » 19.02.2009, 14:52

mykola писал(а):В связи с тем,что Ворбис умеет делать мульти-треки с сохранением тегов и без файла cue, хочу спросить:а чем делать такие файлы без конвертирования?
пишете в командной строке "copy /b file1.ogg + file2.ogg... output.ogg"
mykola писал(а):И чем их можно разбивать ?
Этим
May the force be with you
do0dlez
Увлечённый
Аватара
Возраст: 25
Откуда: Украина, Луганск
С нами: 8 лет 4 месяца

Сообщение #44 mykola » 19.02.2009, 16:02

если можно,по порядку-командная строка это где? Как выбрать файлы? Подробнее можно?
mykola M
Адепт
Аватара
Откуда: Украина
С нами: 9 лет 1 месяц

Сообщение #45 Зелёный » 19.02.2009, 18:56

mykola писал(а):если можно,по порядку-командная строка это где?

ПУСК > Выполнить... > в поле ввода пишете : "cmd" (без кавычек). Открывается командная строка (чёрная такая).
http://промышляйразвратом.рф
Зелёный M
Модератор
Аватара
Возраст: 35
Откуда: Великий Новгород
С нами: 10 лет 2 месяца

Пред.След.

Название раздела: Ogg Vorbis
Описание: Обсуждение всех вопросов касательно Ogg Vorbis

Быстрый ответ


Введите код в точности так, как вы его видите. Регистр символов не имеет значения.
Код подтверждения
:hi: :smile: :wink: :twisted: :sad: :evil: :smoke: :eh: :eek: :fie: :silenced: :razz: :oops: :help: :spy: :insane: :biggrin: :toothless: :ill: :nervious: :weirdface: :pray: :clap: :think: :boxing: :cyclop: :rambo: :zombie: :cry: Ещё смайлики…

   

Вернуться в Ogg Vorbis

Кто сейчас на форуме (по активности за 10 минут)

Сейчас этот раздел просматривают: 1 гость

Интересные статьи