Gogol Bordello - Моя цыганиада (2011)

Список разделов Музыка и Видео Музыка в Vorbis

Описание: Ссылки на музыку в формате Vorbis Ogg
Правила раздела: Правила оформления альбома

Сообщение #1 winand » 27.11.2011, 17:20

Изображение

Исполнитель: Gogol Bordello
Альбом: Моя цыганиада
Жанр: Gypsy Punk
Год: 2011
Обложка: Присутствует
Источник: Original CD (Arena Moscow 11-11-25)
Качество: Q8
Кодер: Oggenc2.87 x64, aoTuV b6.03 [20110424]

Треклист:
01 - Трансмиграция (Мы с тобой заодно)
02 - Моя цыганиада (Трансконтинентальный Hustle)
03 - Бесконечное буги (С участием Марианны Эберт)
04 - Песенка об Одессе
05 - Баллада о любви
06 - Да повыкурим, да повызнобим
07 - Динамо (Песня футбольных фанатов, с участием фан-клуба ''Динамо-Киев'')
08 - Києве мiй (С участием фан-клуба ''Динамо-Киев'')
09 - Плывёт моряк
10 - Stivali E Colbacco
11 - Трансконтинентальный Hustle (Ремикс - Гудзь-Рея)

Отчёт Exact Audio Copy:
Код: Выделить всё
Exact Audio Copy V1.0 beta 3 from 29. August 2011

Отчёт EAC об извлечении, выполненном 27. ноября 2011, 16:01

Gogol Bordello / Моя цыганиада

Дисковод: PLEXTOR DVDR   PX-760A   Adapter: 1  ID: 0

Режим чтения                 : Достоверность
Использование точного потока : Да
Отключение кэша аудио        : Да
Использование указателей C2  : Да

Комбинированное смещение чтения/записи            : 0
Способность читать области Lead-in и Lead-out     : Нет
Заполнение пропущенных сэмплов тишиной            : Да
Удаление блоков с тишиной в начале и конце        : Нет
При вычислениях CRC использовались нулевые сэмплы : Да
Интерфейс                                         : Встроенный Win32-интерфейс для Win NT/2000
Обработка зазоров                                 : Не обнаружено, добавлено к предыдущему треку

Выходной формат          : Ogg Vorbis
Выбранный битрейт        : Quality 8 (high)
Качество                 : Высокий
Добавление ID3-тега      : Нет
Утилита сжатия           : G:\Program Files (x86)\Exact Audio Copy\oggenc2.exe


TOC извлечённого CD

     Трек |   Старт  | Длительность | Начальный сектор | Конечный сектор
    ---------------------------------------------------------------------
       1  |  0:00.00 |    4:08.74   |           0      |      18673     
       2  |  4:08.74 |    3:51.47   |       18674      |      36045     
       3  |  8:00.46 |    4:50.21   |       36046      |      57816     
       4  | 12:50.67 |    2:31.06   |       57817      |      69147     
       5  | 15:21.73 |    6:03.58   |       69148      |      96430     
       6  | 21:25.56 |    1:06.67   |       96431      |     101447     
       7  | 22:32.48 |    3:31.05   |      101448      |     117277     
       8  | 26:03.53 |    3:08.50   |      117278      |     131427     
       9  | 29:12.28 |    2:32.73   |      131428      |     142900     
      10  | 31:45.26 |    3:56.34   |      142901      |     160634     
      11  | 35:41.60 |    4:20.53   |      160635      |     180187     


Трек  1

     Имя файла H:\My Music\Gogol Bordello\2011 - Моя цыганиада\vorb_new\01 - Трансмиграция (Мы с тобой заодно).wav

     Пиковый уровень 99.9 %
     Скорость извлечения 2.9 X
     Качество трека 100.0 %
     CRC копии 9C70607A
     Копирование... OK

Трек  2

     Имя файла H:\My Music\Gogol Bordello\2011 - Моя цыганиада\vorb_new\02 - Моя цыганиада (Трансконтинентальный Hustle).wav

     Пиковый уровень 98.8 %
     Скорость извлечения 2.9 X
     Качество трека 100.0 %
     CRC копии 92D8D63F
     Копирование... OK

Трек  3

     Имя файла H:\My Music\Gogol Bordello\2011 - Моя цыганиада\vorb_new\03 - Бесконечное буги (С участием Марианны Эберт).wav

     Пиковый уровень 95.9 %
     Скорость извлечения 3.0 X
     Качество трека 100.0 %
     CRC копии A9D05715
     Копирование... OK

Трек  4

     Имя файла H:\My Music\Gogol Bordello\2011 - Моя цыганиада\vorb_new\04 - Песенка об Одессе.wav

     Пиковый уровень 95.0 %
     Скорость извлечения 1.5 X
     Качество трека 99.8 %
     CRC копии 347E8784
     Копирование... OK

Трек  5

     Имя файла H:\My Music\Gogol Bordello\2011 - Моя цыганиада\vorb_new\05 - Баллада о любви.wav

     Пиковый уровень 90.9 %
     Скорость извлечения 3.1 X
     Качество трека 100.0 %
     CRC копии 9E573B9E
     Копирование... OK

Трек  6

     Имя файла H:\My Music\Gogol Bordello\2011 - Моя цыганиада\vorb_new\06 - Да повыкурим, да повызнобим.wav

     Пиковый уровень 98.8 %
     Скорость извлечения 2.0 X
     Качество трека 100.0 %
     CRC копии D5F589FD
     Копирование... OK

Трек  7

     Имя файла H:\My Music\Gogol Bordello\2011 - Моя цыганиада\vorb_new\07 - Динамо (Песня футбольных фанатов, с участием фан-клуба ''Динамо-Киев'').wav

     Пиковый уровень 94.2 %
     Скорость извлечения 2.8 X
     Качество трека 100.0 %
     CRC копии 6630A04B
     Копирование... OK

Трек  8

     Имя файла H:\My Music\Gogol Bordello\2011 - Моя цыганиада\vorb_new\08 - Києве мiй (С участием фан-клуба ''Динамо-Киев'').wav

     Пиковый уровень 91.4 %
     Скорость извлечения 1.7 X
     Качество трека 99.8 %
     CRC копии FFA956DC
     Копирование... OK

Трек  9

     Имя файла H:\My Music\Gogol Bordello\2011 - Моя цыганиада\vorb_new\09 - Плывёт моряк.wav

     Пиковый уровень 85.1 %
     Скорость извлечения 1.5 X
     Качество трека 99.8 %
     CRC копии 15FD08DE
     Копирование... OK

Трек 10

     Имя файла H:\My Music\Gogol Bordello\2011 - Моя цыганиада\vorb_new\10 - Stivali E Colbacco.wav

     Пиковый уровень 97.6 %
     Скорость извлечения 1.8 X
     Качество трека 99.9 %
     CRC копии 119A0C00
     Копирование... OK

Трек 11

     Имя файла H:\My Music\Gogol Bordello\2011 - Моя цыганиада\vorb_new\11 - Трансконтинентальный Hustle (Ремикс - Гудзь-Рея).wav

     Пиковый уровень 97.6 %
     Скорость извлечения 1.9 X
     Качество трека 99.9 %
     CRC копии EAAF6706
     Копирование... OK

Ошибок не произошло

Конец отчёта

---- CUETools DB Plugin V2.1.3

[CTDB TOCID: FNYJc8Mqv_5DGCNLTRucnNi2J.U-] found, Submit result: FNYJc8Mqv_5DGCNLTRucnNi2J.U- has been confirmed
[a7d5cf78] (1/1) Accurately ripped

Загрузить с Yandex.disk (92.2Мб)
Загрузить с Dropbox (92.2Мб)

Добавлено спустя 6 минут 42 секунды:
Пока ещё эксклюзивный диск, продаётся только на концертах:)
winand
Заинтересованый
С нами: 8 лет 10 месяцев

Название раздела: Музыка в Vorbis
Описание: Ссылки на музыку в формате Vorbis Ogg
Правила раздела: Правила оформления альбома

Быстрый ответ


Введите код в точности так, как вы его видите. Регистр символов не имеет значения.
Код подтверждения
:hi: :smile: :wink: :twisted: :sad: :evil: :smoke: :eh: :eek: :fie: :silenced: :razz: :oops: :help: :spy: :insane: :biggrin: :toothless: :ill: :nervious: :weirdface: :pray: :clap: :think: :boxing: :cyclop: :rambo: :zombie: :cry: Ещё смайлики…

   

Вернуться в Музыка в Vorbis

Кто сейчас на форуме (по активности за 10 минут)

Сейчас этот раздел просматривают: 2 гостя

Интересные статьи