Blutengel - 2002 - Angel Dust (2CD, LP, 2002, #OUT 090|091) [Vorbis Q5]

Список разделов Музыка и Видео Музыка в Vorbis

Описание: Ссылки на музыку в формате Vorbis Ogg
Правила раздела: Правила оформления альбома

Сообщение #1 dekadenz » 07.07.2013, 18:24

Изображение

Код: Выделить всё
knights who say ogg
release 1373206470 (UNSTABLE rules)

Blutengel - 2002 - Angel Dust (Limited Edition)

1.01. Angel Dust I                             03:47
1.02. Stranded                                 05:16
1.03. Vampire Romance, Part I                  06:23
1.04. The End Of Love                          06:14
1.05. Iron Heart                               05:02
1.06. Our Time                                 05:44
1.07. Wonderland                               05:14
1.08. Angel Dust II                            02:49
1.09. Black Wedding                            03:39
1.10. I Will Follow                            04:58
1.11. Silent Death                             03:46
1.12. Angel Of The Night                       05:09
1.13. Keine Ewigkeit                           05:46
1.14. Night Of Sin                             04:54
1.15. Vampire Romance, Part II                 05:49
1.16. Angel Dust III                           05:01

Bonus CD

2.01. Dark Skies                               04:42
2.02. Black Wedding (Dark Embrace Remix)       05:36
2.03. The End Of Love (Remix By Black Heaven)  05:01
2.04. Her Song                                 02:27

genre: ebm/synthpop

source:      rip from #OUT 090|091
encoder:     oggenc v2.87 (aotuv beta 6.03)
quality:     5.0
replaygain:  present

-1.0db pregain applied before encoding to prevent clipping.
магнит
бухта
Ищу соратников в открытую релиз-группу по Vorbis Q5 "knights who say ogg". Заинтересованным просьба написать в личку.
dekadenz M
Заинтересованый
Аватара
С нами: 3 года 9 месяцев

Сообщение #2 Janik » 08.07.2013, 00:52

Интересное издание.
Janik M
Модератор
Аватара
Откуда: Санкт-Петербург
С нами: 9 лет 9 месяцев

Сообщение #3 dekadenz » 08.07.2013, 01:59

Да, довольно редкое. Даже возникли сомнения в подлинности рипа. Пробил CueTools по AR и CTDB - все нормально. Логи EAC на немецком, поэтому CueTools в них не нашел контрольной суммы. На слух и по спектрам, разумеется, тоже нет вопросов. Поэтому решил что как исходник подойдет.

Лог проверки основного диска
Код: Выделить всё
[CUETools log; Date: 7/8/2013 12:55:24 AM; Version: 2.1.4]
[CTDB TOCID: 1Oh5eEkJ1dtBc.vYY9tOA8Zb00Q-] found.
Track | CTDB Status
  1   | (10/10) Accurately ripped
  2   | (10/10) Accurately ripped
  3   | (10/10) Accurately ripped
  4   | (10/10) Accurately ripped
  5   | (10/10) Accurately ripped
  6   | (10/10) Accurately ripped
  7   | (10/10) Accurately ripped
  8   | (10/10) Accurately ripped
  9   | (10/10) Accurately ripped
 10   | (10/10) Accurately ripped
 11   | (10/10) Accurately ripped
 12   | (10/10) Accurately ripped
 13   | (10/10) Accurately ripped
 14   | (10/10) Accurately ripped
 15   | (10/10) Accurately ripped
 16   | (10/10) Accurately ripped
[AccurateRip ID: 002e855e-022b94ac-d412a110] found.
Track   [  CRC   |   V2   ] Status
 01     [61bccc0f|ee51f757] (15+04/21) Accurately ripped
 02     [3a6b7074|03d34304] (15+04/21) Accurately ripped
 03     [49b0388c|977b8e16] (15+04/21) Accurately ripped
 04     [50d8ef56|e02b6c8e] (15+04/21) Accurately ripped
 05     [65f25eff|1a4e0d90] (14+04/20) Accurately ripped
 06     [41a520a4|4f0ca09c] (14+04/20) Accurately ripped
 07     [8061bf1e|62e32b08] (14+04/20) Accurately ripped
 08     [94581b69|d2f2e8ed] (14+04/20) Accurately ripped
 09     [a59a52cc|7682bf33] (14+04/20) Accurately ripped
 10     [3339e608|4d54d848] (13+04/19) Accurately ripped
 11     [ba7b2b38|398e1104] (14+04/20) Accurately ripped
 12     [9c29ef8e|e5ed6293] (14+04/20) Accurately ripped
 13     [ad0e6198|fcb16f5d] (14+04/20) Accurately ripped
 14     [b3c6e7d5|fbd99c88] (14+04/20) Accurately ripped
 15     [a7ba568c|ea0a910a] (14+04/20) Accurately ripped
 16     [22873071|895f7a11] (14+04/20) Accurately ripped
Offsetted by -81:
 01     [a28c6552] (02/21) Accurately ripped
 02     [280eba86] (02/21) Accurately ripped
 03     [33dee04f] (02/21) Accurately ripped
 04     [ecc23f4f] (02/21) Accurately ripped
 05     [f981ee92] (02/20) Accurately ripped
 06     [6cd37fef] (02/20) Accurately ripped
 07     [c6c25672] (02/20) Accurately ripped
 08     [45e1f18b] (02/20) Accurately ripped
 09     [49b6f990] (02/20) Accurately ripped
 10     [a9fae929] (02/19) Accurately ripped
 11     [c26c6e63] (02/20) Accurately ripped
 12     [e7c9e32d] (02/20) Accurately ripped
 13     [ff19431d] (02/20) Accurately ripped
 14     [4bf8073b] (02/20) Accurately ripped
 15     [2665e4e5] (02/20) Accurately ripped
 16     [9af13af7] (02/20) Accurately ripped

Track Peak [ CRC32  ] [W/O NULL]
 --  100.0 [F5AEC847] [B4A8751D]           
 01  100.0 [5B28AA89] [C85D88FD]           
 02  100.0 [B109E968] [7857C546]           
 03  100.0 [FAAFEF5A] [17F907F2]           
 04  100.0 [69090C45] [1324398F]           
 05  100.0 [B07E7C20] [9E47DA24]           
 06  100.0 [05C2CC30] [714F2E65]           
 07  100.0 [4A0F902A] [6EC6B4EA]           
 08  100.0 [24EB4976] [D9C0439E]           
 09  100.0 [D301515F] [2A1516B4]           
 10  100.0 [15DC3F4A] [FDAC121B]           
 11  100.0 [C3AF9DF9] [75AB24BE]           
 12  100.0 [BFCA2C50] [E193EA3D]           
 13  100.0 [67833F25] [26F786F9]           
 14  100.0 [A9F55EC2] [63D2025A]           
 15  100.0 [7831A7BB] [09374816]           
 16  100.0 [8DF66DA8] [AE4C2AF3]
Лог проверки бонусного диска
Код: Выделить всё
[CUETools log; Date: 7/8/2013 12:57:28 AM; Version: 2.1.4]
[CTDB TOCID: ezRZxW0HwxhGxwLqTUuolTsQxZE-] found.
Track | CTDB Status
  1   | (2/2) Accurately ripped
  2   | (2/2) Accurately ripped
  3   | (2/2) Accurately ripped
  4   | (2/2) Accurately ripped
[AccurateRip ID: 00034d29-000d1292-2b042904] found.
Track   [  CRC   |   V2   ] Status
 01     [d6221b79|d3ea9890] (5+0/5) Accurately ripped
 02     [6461cd17|a2ddb080] (5+0/5) Accurately ripped
 03     [9926e01e|1f6261b2] (5+0/5) Accurately ripped
 04     [9887e2b3|b5c1e794] (5+0/5) Accurately ripped

Track Peak [ CRC32  ] [W/O NULL]
 --  100.0 [2164AC6C] [45064F20]           
 01  100.0 [11DF42C4] [F5C2F0FC]           
 02  100.0 [E0454FA5] [DE858616]           
 03  100.0 [D11CA1BF] [8557D7F8]           
 04  100.0 [4612E7F6] [4CF863D9]           

P. S. Пока тренируюсь на чужих рипах. Свои, которых нет в сети ни в каком виде, решил приберечь на сладкое.
Ищу соратников в открытую релиз-группу по Vorbis Q5 "knights who say ogg". Заинтересованным просьба написать в личку.
dekadenz M
Заинтересованый
Аватара
С нами: 3 года 9 месяцев

Сообщение #4 Sojindox » 09.07.2013, 14:59

аля Depeche Mode? :wink:
Sojindox
Адепт
Аватара
Откуда: chown -Rv N:A $HOME
С нами: 7 лет 11 месяцев

Сообщение #5 Janik » 10.07.2013, 23:21

Похоже.
Janik M
Модератор
Аватара
Откуда: Санкт-Петербург
С нами: 9 лет 9 месяцев


Название раздела: Музыка в Vorbis
Описание: Ссылки на музыку в формате Vorbis Ogg
Правила раздела: Правила оформления альбома

Быстрый ответ


Введите код в точности так, как вы его видите. Регистр символов не имеет значения.
Код подтверждения
:hi: :smile: :wink: :twisted: :sad: :evil: :smoke: :eh: :eek: :fie: :silenced: :razz: :oops: :help: :spy: :insane: :biggrin: :toothless: :ill: :nervious: :weirdface: :pray: :clap: :think: :boxing: :cyclop: :rambo: :zombie: :cry: Ещё смайлики…

   

Вернуться в Музыка в Vorbis

Кто сейчас на форуме (по активности за 10 минут)

Сейчас этот раздел просматривают: 1 гость

Интересные статьи