Our Favorite Anime Songs -Red Board- [2009.03.04]

Список разделов Музыка и Видео Музыка в Vorbis

Описание: Ссылки на музыку в формате Vorbis Ogg
Правила раздела: Правила оформления альбома

Сообщение #1 Motosava » 03.11.2013, 22:11

Изображение

Жанр: japanese, pop, rock, female.vocalist, male.vocalist, soundtrack, anison
Год выпуска: 2009;
Качество: Q5;
Источник: FLAC.
Треки:
1. YOU & THE EXPLOSION BAND - Theme From Lupin III '78 (Lupin III) (3:24)
2. Godaigo - The Galaxy Express 999 (Galaxy Express 999 Movie) (3:29)
3. TM NETWORK - Get Wild (City Hunter) (4:01)
4. Anri - CAT'S EYE (CAT's EYE) (3:22)
5. Iwasaki Yoshimi - Touch (Touch) (3:13)
6. Kageyama Hironobu - CHA-LA HEAD-CHA-LA (Dragon Ball Z) (3:19)
7. Akira Kushida - Kinnikuman Go Fight! (Kinnikuman) (3:09)
8. Crystal King - Ai wo Torimodose!! (Fist of the North Star) (2:57)
9. MAKE.UP - PEGASUS FANTASY (Saint Seiya) (3:41)
10. HARRY - Midnight Submarine (Future Police Urashiman) (3:44)
11. Yoko Maeno - Cobra (Space Adventure Cobra) (2:59)
12. Popura - Different Dimension Story (Dream Warrior Wingman) (3:38)
13. Yoko Maekawa - Cutie Honey (Cutie Honey) (2:19)
14. Keizo Toda - Song of Devilman (Devilman) (2:58)
15. Ken Narita & Koorogi '73 - Daregatameni (Cyborg 009) (3:19)
16. Mitsuko Horie & The Chirps - Candy Candy (Candy Candy) (3:20)
17. Yuuko Matsutani - Lum's Love Song (Urusei Yatsura) (2:42)
18. Ushiroyubi Sasaregumi & Onyanko Club - Ushiroyubi Sasaregumi (Highschool! Kimengumi) (4:24)
19. Mizumori Ado - Waiwai World (Dr. Slump) (2:38)
20. Kinya Hori - Kaze ni nare! (Ganbare Genki) (3:21)
21. 99Harmony - Kimi wa Nanika ga Dekiru (Captain) (3:05)
22. MoJo - Wakaki Tabibito (Tsurikichi Sampei) (3:07)
23. H2O - Omoide ga Ippai (Miyuki) (4:04)
24. Ichiro Mizuki - Mazinger Z (Mazinger Z) (1:49)

СКАЧАТЬ:
http://yadi.sk/d/MTMTuKoQC5Jy5

Попробую приобщить вас к прекрасному, правдо это прекрасное у каждого своё, но может хоть что-нибудь понравится. Это сборник старых (олдскульных) треков из разных аниме, ничего нового тут нет, только классика, год выпуска диска не столь важен. Всего существует 3 таких сборника, у меня в наличии один из этой серии, в которой только лучшие треки, а вообще есть всякие сборники, в том чиле собственные но это уже другая история.
Собираю сборник FLAC Anime OP/ED и компакт версию в Vorbis q7.0 FLAC Total: >26Gb
Motosava M
Последователь
Аватара
Возраст: 28
С нами: 5 лет 9 месяцев

Сообщение #2 Janik » 05.11.2013, 00:10

Спасибо. Интересно...
Послушаю.
Janik M
Модератор
Аватара
Откуда: Санкт-Петербург
С нами: 9 лет 9 месяцев

Сообщение #3 Motosava » 08.11.2013, 12:33

Забыл указать, что диск HQCD (Our Favorite Anime Songs [HQCD]) Если кому очень понравится, залью flac, но пока отзывов нет))

Спойлер
01 [f53eccda] (10/12) Accurately ripped
02 [d364e39e] (10/12) Accurately ripped
03 [0322b89a] (10/12) Accurately ripped
04 [88ab7029] (10/12) Accurately ripped
05 [e51e756d] (10/12) Accurately ripped
06 [6c628c7a] (10/12) Accurately ripped
07 [99b4c62a] (10/12) Accurately ripped
08 [2a8022d4] (10/12) Accurately ripped
09 [23cbb748] (10/12) Accurately ripped
10 [38ddc265] (10/12) Accurately ripped
11 [162db404] (10/12) Accurately ripped
12 [50ac6542] (10/12) Accurately ripped
13 [b2ac82c3] (10/12) Accurately ripped
14 [e6012a7f] (10/12) Accurately ripped
15 [28e91a26] (09/11) Accurately ripped
16 [f0674719] (10/12) Accurately ripped
17 [490ab8c5] (10/12) Accurately ripped
18 [2d544365] (10/12) Accurately ripped
19 [fe6c9080] (10/12) Accurately ripped
20 [13170da5] (10/12) Accurately ripped
21 [e183b190] (10/12) Accurately ripped
22 [5daf125b] (10/12) Accurately ripped
23 [201bdf11] (08/10) Accurately ripped
24 [66b962c4] (07/09) Accurately ripped
Собираю сборник FLAC Anime OP/ED и компакт версию в Vorbis q7.0 FLAC Total: >26Gb
Motosava M
Последователь
Аватара
Возраст: 28
С нами: 5 лет 9 месяцев

Сообщение #4 Sojindox » 09.11.2013, 15:56

Качество не очень, смазано как-то...
Sojindox
Адепт
Аватара
Откуда: chown -Rv N:A $HOME
С нами: 7 лет 11 месяцев

Сообщение #5 Janik » 10.11.2013, 00:30

Записи старые, конечно. Что удивительно, японцы могут записывать шикарно, а могут вообще -- махнув рукой. На этом диске именно второй случай.
Janik M
Модератор
Аватара
Откуда: Санкт-Петербург
С нами: 9 лет 9 месяцев

Сообщение #6 Motosava » 10.11.2013, 11:23

А я думал это из-за старости треков такое качество вышло.
Собираю сборник FLAC Anime OP/ED и компакт версию в Vorbis q7.0 FLAC Total: >26Gb
Motosava M
Последователь
Аватара
Возраст: 28
С нами: 5 лет 9 месяцев


Название раздела: Музыка в Vorbis
Описание: Ссылки на музыку в формате Vorbis Ogg
Правила раздела: Правила оформления альбома

Быстрый ответ


Введите код в точности так, как вы его видите. Регистр символов не имеет значения.
Код подтверждения
:hi: :smile: :wink: :twisted: :sad: :evil: :smoke: :eh: :eek: :fie: :silenced: :razz: :oops: :help: :spy: :insane: :biggrin: :toothless: :ill: :nervious: :weirdface: :pray: :clap: :think: :boxing: :cyclop: :rambo: :zombie: :cry: Ещё смайлики…

   

Вернуться в Музыка в Vorbis

Кто сейчас на форуме (по активности за 10 минут)

Сейчас этот раздел просматривают: 1 гость

Интересные статьи