Transformers: The Album

Список разделов Музыка и Видео Музыка в Ogg Vorbis

Описание: Ссылки на музыку в формате Ogg Vorbis
Правила раздела: Правила оформления альбома

Сообщение #1 B3ND3R » 07.08.2007, 21:11

Изображение
Исполнитель: Various Artists
Альбом: Transformers: The Album
Год выхода: 2007
Жанр: Soundtrack
Качество: Q8
Источник: FLAC

Треклист:
01. Linkin Park <> What I've Done
02. Smashing Pumpkins <> Doomsday Clock
03. Disturbed <> This Moment
04. Goo Goo Dolls <> Before It's Too Late (Sam And Mikaela's Theme)
05. The Used <> Pretty Handsome Awkward
06. Him <> Passion's Killing Floor
07. Taking Back Sunday <> What's It Feel Like To Be A Ghost?
08. Styles Of Beyond (Featuring Mike Shinoda) <> Second To None
09. Armor For Sleep <> End Of The World
10. Idiot Pilot <> Retina And The Sky
11. Julien-K <> Technical Difficulties
12. Muthmath <> Transformers Theme

Ссылки (ifolder.ru):
* Скачать (89.76MB)

Дополнительно:
* Обложки с высоким разрешением в архиве
B3ND3R
Репутация: 1
С нами: 17 лет 1 месяц

Сообщение #2 Kluyg » 07.08.2007, 22:32

Супер, спасибо! Завтра переведусь наконец на безлимит (зашевелились наши провайдеры, когда МТУ-Интел принял решение о продвижении бренда СТРИМ на территории Самары, Тольятти и Сочи :) ) и буду активным покачальщиком :) И, надеюсь, выкладывальщиком.
Kluyg
Аватара
Откуда: Самара
Репутация: 0
С нами: 18 лет 2 месяца

Сообщение #3 Janik » 08.08.2007, 01:54

Kluyg:Супер, спасибо! Завтра переведусь наконец на безлимит (зашевелились наши провайдеры, когда МТУ-Интел принял решение о продвижении бренда СТРИМ на территории Самары, Тольятти и Сочи :) ) и буду активным покачальщиком :) И, надеюсь, выкладывальщиком.

Не в тему, но информативно:
Зашевелились, потому что в этих регионах скоро обоснуется московская "Corbina", обтягивающая города широкополостными Интернет-магистралями (2-4 Пентабайта/сек).
Так скажу: Конкуренцию с "Корбиной" не выдерживал ещё никто. У нас в Питере - вот-вот и сдуются 3 последних собственных провайдера.
И справка:
"Корбина" по количеству услуг предоставления Интернет-связи на душу населения уже обогнала Токио. В следующем году она обгонит Нью-Йорк, и тогда, Россия будет на первом месте в мире по количеству предоставления широкополосного Интернета на душу населения.
Janik M
Аватара
Откуда: Санкт-Петербург
Репутация: 43
С нами: 16 лет 11 месяцев

Сообщение #4 Janik » 08.08.2007, 01:57

За "ТРАНСФОРМАТОРОВ" - спасибо! :)
Музыка из фантастики - моё самое любимое...
Janik M
Аватара
Откуда: Санкт-Петербург
Репутация: 43
С нами: 16 лет 11 месяцев

Сообщение #5 [Denis] » 07.11.2007, 20:29

Музыка хорошая только мне качество не понравилось может потому что "Xiph.Org libVorbis I 20070622" или исходник такой.
А так конечно спасибо за то что выложил!
[Denis]
Откуда: Челябинская обл.
Репутация: 0
С нами: 18 лет 4 месяца

Сообщение #6 sokolov p a » 07.11.2007, 20:38

Janik:Так скажу: Конкуренцию с "Корбиной" не выдерживал ещё никто. У нас в Питере - вот-вот и сдуются 3 последних собственных провайдера.
И справка:
"Корбина" по количеству услуг предоставления Интернет-связи на душу населения уже обогнала Токио. В следующем году она обгонит Нью-Йорк, и тогда, Россия будет на первом месте в мире по количеству предоставления широкополосного Интернета на душу населения.
Провайдер хороший, только в моём районе его пока нет. Вообще ничего кроме ТвоёТВ нет. Вот сижу жду. А пока 512 Кб/256Кб[100Гб.] = 590 р. ip = 150р.
sokolov p a
Аватара
Репутация: 0
С нами: 17 лет 8 месяцев

Сообщение #7 [Denis] » 08.11.2007, 23:40

Все таки я думаю это пережато с мп3. Q8 ogg не может быть такой лажей.
[Denis]
Откуда: Челябинская обл.
Репутация: 0
С нами: 18 лет 4 месяца

Сообщение #8 B3ND3R » 09.11.2007, 22:54

Источник: Lossless.

Вот лог рипа:

EAC extraction logfile from 3. July 2007, 17:10 for CD
Various / Transformers: The Album

Used drive : MATSHITADVD-RAM UJ-840S Adapter: 1 ID: 0
Read mode : Secure with NO C2, accurate stream, disable cache
Read offset correction : 102
Overread into Lead-In and Lead-Out : No

Used output format : C:\Program Files\Exact Audio Copy\flac.exe (User Defined Encoder)
128 kBit/s
Additional command line options : -8 -A tukey(0.25) -A gauss(0.1875) -b 4096 -V -T "artist=%a" -T "title=%t" -T "album=%g" -T "date=%y" -T "tracknumber=%n" -T "genre=%m" %s --sector-align

Other options :
Fill up missing offset samples with silence : Yes
Delete leading and trailing silent blocks : No
Installed external ASPI interface


Track 1
Filename C:\Users\James\Desktop\Downloads\Transformers, The Album (Flac)\01 - What I've Done - Linkin Park - What I've Done - Linkin Park.wav

Pre-gap length 0:00:02.00

Peak level 97.7 %
Track quality 100.0 %
Test CRC 1E4E5D7D
Copy CRC 1E4E5D7D
Copy OK

Track 2
Filename C:\Users\James\Desktop\Downloads\Transformers, The Album (Flac)\02 - Doomsday Clock - Smashing Pumpkins - Doomsday Clock - Smashing Pumpkins.wav

Peak level 96.6 %
Track quality 100.0 %
Test CRC F34628AC
Copy CRC F34628AC
Copy OK

Track 3
Filename C:\Users\James\Desktop\Downloads\Transformers, The Album (Flac)\03 - This Moment - Disturbed - This Moment - Disturbed.wav

Peak level 98.9 %
Track quality 100.0 %
Test CRC 4598A77A
Copy CRC 4598A77A
Copy OK

Track 4
Filename C:\Users\James\Desktop\Downloads\Transformers, The Album (Flac)\04 - Before It's Too Late (Sam And Mikaela's Theme) - Goo Goo Dolls - Before It's Too Late (Sam And Mikaela's Theme) - Goo Goo Dolls.wav

Peak level 96.6 %
Track quality 100.0 %
Test CRC C6A1A7E4
Copy CRC C6A1A7E4
Copy OK

Track 5
Filename C:\Users\James\Desktop\Downloads\Transformers, The Album (Flac)\05 - Pretty Handsome Awkward - The Used - Pretty Handsome Awkward - The Used.wav

Peak level 96.6 %
Track quality 99.9 %
Test CRC A95AF1BD
Copy CRC A95AF1BD
Copy OK

Track 6
Filename C:\Users\James\Desktop\Downloads\Transformers, The Album (Flac)\06 - Passion's Killing Floor - Him - Passion's Killing Floor - Him.wav

Peak level 96.6 %
Track quality 100.0 %
Test CRC C4FB6CB0
Copy CRC C4FB6CB0
Copy OK

Track 7
Filename C:\Users\James\Desktop\Downloads\Transformers, The Album (Flac)\07 - What's It Feel Like To Be A Ghost - Taking Back Sunday - What's It Feel Like To Be A Ghost - Taking Back Sunday.wav

Peak level 100.0 %
Track quality 100.0 %
Test CRC 97312975
Copy CRC 97312975
Copy OK

Track 8
Filename C:\Users\James\Desktop\Downloads\Transformers, The Album (Flac)\08 - Second To None - Styles Of Beyond (Featuring Mike Shinoda) - Second To None - Styles Of Beyond (Featuring Mike Shinoda).wav

Pre-gap length 0:00:00.32

Peak level 98.3 %
Track quality 100.0 %
Test CRC 51F0EF13
Copy CRC 51F0EF13
Copy OK

Track 9
Filename C:\Users\James\Desktop\Downloads\Transformers, The Album (Flac)\09 - End Of The World - Armor For Sleep - End Of The World - Armor For Sleep.wav

Peak level 100.0 %
Track quality 100.0 %
Test CRC 16752687
Copy CRC 16752687
Copy OK

Track 10
Filename C:\Users\James\Desktop\Downloads\Transformers, The Album (Flac)\10 - Retina And The Sky - Idiot Pilot - Retina And The Sky - Idiot Pilot.wav

Peak level 96.6 %
Track quality 99.9 %
Test CRC BDA4F417
Copy CRC BDA4F417
Copy OK

Track 11
Filename C:\Users\James\Desktop\Downloads\Transformers, The Album (Flac)\11 - Technical Difficulties - Julien-K - Technical Difficulties - Julien-K.wav

Peak level 96.6 %
Track quality 100.0 %
Test CRC D98064F7
Copy CRC D98064F7
Copy OK

Track 12
Filename C:\Users\James\Desktop\Downloads\Transformers, The Album (Flac)\12 - Transformers Theme - Muthmath - Transformers Theme - Muthmath.wav

Pre-gap length 0:00:03.00

Peak level 100.0 %
Track quality 100.0 %
Test CRC 1C314251
Copy CRC 1C314251
Copy OK

No errors occured


End of status report

Отсюда и пережимал. Рипал не я. Пережимал oggenc libvorbis 1.2.0 + foobar2000.

Вот та раздача: http://torrents.ru/forum/viewtopic.php?t=306774
B3ND3R
Репутация: 1
С нами: 17 лет 1 месяц

Сообщение #9 Janik » 10.11.2007, 04:30

[Denis]:Все таки я думаю это пережато с мп3. Q8 ogg не может быть такой лажей.
Я, кстати, подозревал тоже нелады с этим "саундтреком".
Диапазон, вроде весь охвачен, но извините, что с 5-ой дорожкой? Там чётко слышится "песок". И "песок" этот явно не OGG-шный...
Если лог и принадлежит процессу сграббливания, то диск, очевидно, пиратским был.
Janik M
Аватара
Откуда: Санкт-Петербург
Репутация: 43
С нами: 16 лет 11 месяцев

Сообщение #10 [Denis] » 10.11.2007, 18:46

B3ND3R
Я тебя не в чем не обвиняю просто мне не понравилось качество.
Проверь "Источник: FLAC" прогой AuCDtect.
[Denis]
Откуда: Челябинская обл.
Репутация: 0
С нами: 18 лет 4 месяца

Сообщение #11 B3ND3R » 10.11.2007, 21:13

вобщем проверил я треки auCDtect'ом. вот что получилось:
b3nd3r@ubuntu:~/Music/Lossless/Transformers, The Album (Flac) - 2007$ auCDtect *.wav
auCDtect: CD records authenticity detector, version 0.8.2
Copyright (c) 2004 Oleg Berngardt. All rights reserved.
Copyright (c) 2004 Alexander Djourik. All rights reserved.
------------------------------------------------------------
Processing file: [01 - Linkin Park - What I've Done.wav]
Data analysis: [100%]
------------------------------------------------------------
This track looks like CDDA with probability 100%

------------------------------------------------------------
Processing file: [02 - Smashing Pumpkins - Doomsday Clock.wav]
Data analysis: [100%]
------------------------------------------------------------
This track looks like CDDA with probability 100%

------------------------------------------------------------
Processing file: [03 - Disturbed - This Moment.wav]
Data analysis: [100%]
------------------------------------------------------------
This track looks like CDDA with probability 100%

------------------------------------------------------------
Processing file: [04 - Goo Goo Dolls - Before It's Too Late (Sam And Mikaela's Theme).wav]
Data analysis: [100%]
------------------------------------------------------------
This track looks like CDDA with probability 100%

------------------------------------------------------------
Processing file: [05 - The Used - Pretty Handsome Awkward.wav]
Data analysis: [100%]
------------------------------------------------------------
This track looks like CDDA with probability 100%

------------------------------------------------------------
Processing file: [06 - Him - Passion's Killing Floor.wav]
Data analysis: [100%]
------------------------------------------------------------
This track looks like CDDA with probability 100%

------------------------------------------------------------
Processing file: [07 - Taking Back Sunday - What's It Feel Like To Be A Ghost.wav]
Data analysis: [100%]
------------------------------------------------------------
This track looks like CDDA with probability 100%

------------------------------------------------------------
Processing file: [08 - Styles Of Beyond (Featuring Mike Shinoda) - Second To None.wav]
Data analysis: [100%]
------------------------------------------------------------
This track looks like CDDA with probability 100%

------------------------------------------------------------
Processing file: [09 - Armor For Sleep - End Of The World.wav]
Data analysis: [100%]
------------------------------------------------------------
This track looks like CDDA with probability 100%

------------------------------------------------------------
Processing file: [10 - Idiot Pilot - Retina And The Sky.wav]
Data analysis: [100%]
------------------------------------------------------------
This track looks like CDDA with probability 100%

------------------------------------------------------------
Processing file: [11 - Julien-K - Technical Difficulties.wav]
Data analysis: [100%]
------------------------------------------------------------
This track looks like CDDA with probability 100%

------------------------------------------------------------
Processing file: [12 - Muthmath - Transformers Theme.wav]
Data analysis: [100%]
------------------------------------------------------------
This track looks like CDDA with probability 100%
аккустика у меня сейчас не очень хорошая, поэтому сам я оценить не могу. но могу еще раз перекодировать другим кодеком (AoTuV b5) и залить. возможно зпись такая.
B3ND3R
Репутация: 1
С нами: 17 лет 1 месяц

Сообщение #12 [Denis] » 10.11.2007, 23:05

B3ND3R
Можешь скинуть мне небольшие вырезки без потери качества
второй трек(Doomsday Clock) с 7 по 10 секунду
третий трек(This Moment) с 30 по 35 секунду
на почту denis-ovs@yandex.ru или любым другим способом.
[Denis]
Откуда: Челябинская обл.
Репутация: 0
С нами: 18 лет 4 месяца


Вернуться в Музыка в Ogg Vorbis



cron