Чем конвертировать DTS 5.1 в OGG 5.1

Список разделов Ogg Vorbis Ogg Vorbis

Описание: Обсуждение всех вопросов касательно Ogg Vorbis

Сообщение #1 Johnny » 19.10.2007, 15:03

Пробовал Foober 0.9.4.3 с плагином foo_input_dts
Кодирую дорожку к из фильма 2 часа 5 мин файлик.
Доходит до трети кодирования и появляеться ошибка:
"Error writing to file (Encoder has terminated prematurely with code 0; please re-check parameters) : file://D:\The.Fifth.Element.1997.Remastered.720p.BluRay.Rus - Eng.ogg"
что делать ? :cry:
Johnny
Увлечённый
С нами: 11 лет

Сообщение #2 D.A.S. » 19.10.2007, 15:31

Johnny писал(а):Пробовал Foober 0.9.4.3 с плагином foo_input_dts
Кодирую дорожку к из фильма 2 часа 5 мин файлик.
Доходит до трети кодирования и появляеться ошибка:
"Error writing to file (Encoder has terminated prematurely with code 0; please re-check parameters) : file://D:\The.Fifth.Element.1997.Remastered.720p.BluRay.Rus - Eng.ogg"
что делать ? :cry:

Какой энкодер используется? Какие параметры?

Ты пытался кодировать другими энкодерами, для проверки?
D.A.S. M
Сторонник
Аватара
Откуда: Одесса
С нами: 11 лет 2 месяца

Сообщение #3 Johnny » 22.10.2007, 11:33

Параметры в foobar'e: -s %r -Q -q9,000000 - -o %d
Другими не пробовал. В том то и название темы )
Johnny
Увлечённый
С нами: 11 лет

Сообщение #4 D.A.S. » 23.10.2007, 15:55

Johnny писал(а):Параметры в foobar'e: -s %r -Q -q9,000000 - -o %d
Другими не пробовал. В том то и название темы )

А какой энкодер, версия? Попробуй другие lancer, оф.

И прочие.

Попробуй другие параметры...

Этож интересно какой битрейт -q9 - такой как у DTS?

)
D.A.S. M
Сторонник
Аватара
Откуда: Одесса
С нами: 11 лет 2 месяца

Сообщение #5 Johnny » 25.10.2007, 18:07

-q9 - 320 kb/s
тот DTS оч. высокго битрейта, побольше ...
Та хотелось бы именно Aotuv .. да и странно почему он выдёт ошибку ...
Johnny
Увлечённый
С нами: 11 лет

Сообщение #6 D.A.S. » 25.10.2007, 18:33

Johnny писал(а):-q9 - 320 kb/s
тот DTS оч. высокго битрейта, побольше ...
Та хотелось бы именно Aotuv .. да и странно почему он выдёт ошибку ...

Это все просто считается...

q9 - 320 kb/s это для Stereo т.е. 320/2=160 kbps на 1 канал.

Итого если грубо посчитать соотношение 160 kbps на 1 канал для 5.1 = 960 kbps

Это если брать грубо. Но никак не 320... )

Реально, средний битрейт на таком качестве будет около 800 kbps.

Что собственно не далеко от DTS.
D.A.S. M
Сторонник
Аватара
Откуда: Одесса
С нами: 11 лет 2 месяца

Сообщение #7 Johnny » 26.10.2007, 12:53

Понятно. Не знаю Foobar не показывает битрейт DTS.
Могу сказать только что 0,186 Mb в секунду (1359 Mb - 2.06 часа)
Хочу хотябы до 800 метров ужать.
Johnny
Увлечённый
С нами: 11 лет

Сообщение #8 Johnny » 31.10.2007, 18:58

Разобрался. Просто закодил тем же Foobar'ом в Nero AAC ) Всё пучком.
Johnny
Увлечённый
С нами: 11 лет

Сообщение #9 Kluyg » 31.10.2007, 22:43

Это называется разобрался? Плюнул и пошел другим путем :)
З.Ы. Что собственно не плохо - самый простой и логичный вариант )
Не ищи в моих словах скрытого смысла - его там нет.
Kluyg
Последователь
Аватара
Откуда: Самара
С нами: 11 лет 1 месяц

Сообщение #10 Зелёный » 25.06.2008, 16:25

Aotuv использовать бесполезно. Лично я использую официальный кодер. А Aotuv (даже последняя версия) лично у меня напрочь ОТКАЗАЛАСЬ кодировать 5.1-звук. Вот.
http://промышляйразвратом.рф
Зелёный M
Модератор
Аватара
Возраст: 35
Откуда: Великий Новгород
С нами: 10 лет 3 месяца

Сообщение #11 Nathaniel » 12.07.2008, 14:15

Не легче ли использовать бесплатный кодек от Nero
http://www.nero.com/enu/down-ndaudio.html

HE AAC - даже при 320 kbps в режиме 5.1 клева звучит!
А ворбис в многоканальном режиме, уж простите но не разумно :cry:
Забанен за систематическое нарушение правил
Nathaniel
Последователь
Аватара
С нами: 8 лет 11 месяцев

Сообщение #12 Зелёный » 13.07.2008, 10:46

Обоснуйте. Лично меня OGG 5.1 (да и 6.1) вполне устраивают.
http://промышляйразвратом.рф
Зелёный M
Модератор
Аватара
Возраст: 35
Откуда: Великий Новгород
С нами: 10 лет 3 месяца

Сообщение #13 Winsent » 12.11.2009, 16:20

Дабы не открывать новую тему тут спрошу.

Имеется образ с Pure Audio Blu-ray . Точнее не понятно что, но формата .m2ts. Звук на нём DTS-HD MA 5.1 24/192 kHz.
Теперь собственно вопос как этот самый .m2ts чем-нибудь конвертировать в тот же 5.1 OGG? Пробовал: AIMP; foobar с плагином dts; eac; oggdropXPd. Никто не воспринимет данный формат. Сама .m2ts идет одним огромным файлом, в котором завёрнуты 9 композиций.
Winsent
Заинтересованый
Аватара
С нами: 8 лет

Сообщение #14 Sojindox » 13.11.2009, 01:55

попробуй RAD Video Tools -->convert to wav (Rad game tools)
Но это при условии что в системе есть декодер :-?
http://www.flvplayer4free.com/m2ts-codec.htm
Sojindox
Адепт
Аватара
Откуда: chown -Rv N:A $HOME
С нами: 8 лет

Сообщение #15 Winsent » 14.11.2009, 10:16

Что-то получилось при помощи VLC media player. Но файлы ogg получаются подозрительно малы. Из исходных 9,77 ГБ в ogg 48 khz, 320 kbps, 5,1 surround получается ~ 140 МБ. Так же сконвертировал во flac 48 khz, 512 kbps (на большее VLC media player не способен как понял) 5,1 surround вышло ~ 540 Мб.

Код: Выделить всё
General
Complete name                    : ogg.ogg
Format                           : OGG
File size                        : 138 MiB
Duration                         : 1h 12mn
Overall bit rate                 : 266 Kbps
Writing application              : VLC media player

Audio
ID                               : 3732 (0xE94)
Format                           : Vorbis
Format settings, Floor           : 1
Duration                         : 1h 12mn
Bit rate                         : 320 Kbps
Channel(s)                       : 6 channels
Sampling rate                    : 48.0 KHz
Resolution                       : 16 bits
Stream size                      : 166 MiB
Writing library                  : libVorbis 1.2 (UTC 2007-06-22)


Код: Выделить всё
General
Complete name                    : flac.flac
Format                           : FLAC
Format/Info                      : Free Lossless Audio Codec
File size                        : 536 MiB

Audio
Format                           : FLAC
Format/Info                      : Free Lossless Audio Codec
Bit rate mode                    : Variable
Channel(s)                       : 6 channels
Sampling rate                    : 48.0 KHz
Resolution                       : 16 bits
Stream size                      : 536 MiB (100%)

Sojindox, спасибо пропробую этой программой еще.
Winsent
Заинтересованый
Аватара
С нами: 8 лет

След.

Название раздела: Ogg Vorbis
Описание: Обсуждение всех вопросов касательно Ogg Vorbis

Быстрый ответ


Введите код в точности так, как вы его видите. Регистр символов не имеет значения.
Код подтверждения
:hi: :smile: :wink: :twisted: :sad: :evil: :smoke: :eh: :eek: :fie: :silenced: :razz: :oops: :help: :spy: :insane: :biggrin: :toothless: :ill: :nervious: :weirdface: :pray: :clap: :think: :boxing: :cyclop: :rambo: :zombie: :cry: Ещё смайлики…

   

Вернуться в Ogg Vorbis

Интересные статьи